Info

Don't Be Afraid of the Dark


5.6
IMDB: 5.6/10 41,438 votes

Durata: 99 min

Released:

Anno: 26 Aug 2011

Direttore:

Premi: 3 nominations.

Budget: 25000000$

Incassi: 36993168$

Stato: Released

Paese: USA, Australia, Mexico

Cast:




Sally Hirst, una bambina taciturna e solitaria, si trasferisce in una villa del XIX secolo a Rhode Island assieme al padre Alex e alla nuova fidanzata di lui Kim. Sally una volta arrivata sente che qualcosa di strano incombe nella nuova dimora e cerca di farlo sapere al suo padre, ma quest’ultimo, architetto di professione, è talmente preso con i lavori di ristrutturazione che inizialmente non dà peso alle parole di sua figlia……….

Trailer


Upload on Youtube

Info File

General
Complete name : Non avere paura del buio - Don't Be Afraid of the Dark (2011).ita.eng.sub.ita.eng.MIRCrew\Non avere paura del buio - Don't Be Afraid of the Dark (2011).ita.eng.sub.ita.eng.MIRCrew.avi
Format : AVI
Format/Info : Audio Video Interleave
File size : 1.65 GiB
Duration : 1h 38mn
Overall bit rate : 2 380 Kbps
Writing application : VirtualDubMod 1.5.10.2 (build 2540/release)
Writing library : VirtualDubMod build 2540/release

Video
ID : 0
Format : MPEG-4 Visual
Format profile : [email protected]
Format settings, BVOP : No
Format settings, QPel : No
Format settings, GMC : No warppoints
Format settings, Matrix : Default (H.263)
Codec ID : XVID
Codec ID/Hint : XviD
Duration : 1h 38mn
Bit rate : 1 470 Kbps
Width : 720 pixels
Height : 386 pixels
Display aspect ratio : 16:9
Frame rate : 24.000 fps
Color space : YUV
Chroma subsampling : 4:2:0
Bit depth : 8 bits
Scan type : Progressive
Compression mode : Lossy
Bits/(Pixel*Frame) : 0.220
Stream size : 1.02 GiB (62%)
Writing library : XviD 65

Audio #1
ID : 1
Format : AC-3
Format/Info : Audio Coding 3
Mode extension : CM (complete main)
Codec ID : 2000
Duration : 1h 38mn
Bit rate mode : Constant
Bit rate : 448 Kbps
Channel(s) : 6 channels
Channel positions : Front: L C R, Side: L R, LFE
Sampling rate : 48.0 KHz
Bit depth : 16 bits
Compression mode : Lossy
Stream size : 317 MiB (19%)
Alignment : Split accross interleaves
Interleave, duration : 42 ms (1.00 video frame)
Interleave, preload duration : 500 ms

Audio #2
ID : 2
Format : AC-3
Format/Info : Audio Coding 3
Mode extension : CM (complete main)
Codec ID : 2000
Duration : 1h 38mn
Bit rate mode : Constant
Bit rate : 448 Kbps
Channel(s) : 6 channels
Channel positions : Front: L C R, Side: L R, LFE
Sampling rate : 48.0 KHz
Bit depth : 16 bits
Compression mode : Lossy
Stream size : 317 MiB (19%)
Alignment : Split accross interleaves
Interleave, duration : 42 ms (1.00 video frame)
Interleave, preload duration : 500 ms

Trackers

http://tracker.istole.it:80/
http://tracker.publicbt.com:80/
http://tracker.tntvillage.scambioetico.org:2710/scrape
http://open.demonii.com:1337/scrape
http://tracker.coppersurfer.tk:6969/scrape
http://tracker.openbittorrent.com/scrape