Info

Step Up 3D


6.2
IMDB: 6.2/10 48,052 votes

Durata: 107 min

Released:

Anno: 06 Aug 2010

Direttore:

Premi: 1 nomination.

Budget: 30000000$

Incassi: 159291809$

Stato: Released

Paese: USA

Cast:




Luke è un ballerino di strada orfano, impegnato nel disperato tentativo di non essere sfrattato dalla sua unica casa: un vecchio magazzino decadente che è invece il paradiso di tanti ballerini di strada provenienti da tutto il mondo. Per farlo lui e la sua crew dovranno vincere la World Jam Competition dove i migliori ballerini di strada del mondo si ritrovano faccia a faccia per decretare chi sia il più forte. Sulla strada per la vittoria incontrerà Natalie, una ballerina fantastica ma decisamente misteriosa…

Trailer


Upload on Youtube

Info File

General
Complete name : S:\Step.Up.3.2010.iTALiAN.BDRip.XviD-SKO\Step.Up.3.2010.iTALiAN.BRRip.XviD-SKO.CD1.avi
Format : AVI
Format/Info : Audio Video Interleave
File size : 1.02 GiB
Duration : 57mn 28s
Overall bit rate : 2 553 Kbps
Writing application : VirtualDubMod 1.5.10.1 (build 2439/release)
Writing library : VirtualDubMod build 2439/release

Video
ID : 0
Format : MPEG-4 Visual
Format profile : Advanced [email protected]
Format settings, BVOP : 1
Format settings, QPel : No
Format settings, GMC : No warppoints
Format settings, Matrix : Default (MPEG)
Codec ID : XVID
Codec ID/Hint : XviD
Duration : 57mn 28s
Bit rate : 1 904 Kbps
Width : 624 pixels
Height : 352 pixels
Display aspect ratio : 16:9
Frame rate : 23.976 fps
Color space : YUV
Chroma subsampling : 4:2:0
Bit depth : 8 bits
Scan type : Progressive
Compression mode : Lossy
Bits/(Pixel*Frame) : 0.361
Stream size : 783 MiB (75%)
Writing library : XviD 1.2.1 (UTC 2008-12-04)

Audio
ID : 1
Format : AC-3
Format/Info : Audio Coding 3
Codec ID : 2000
Duration : 57mn 28s
Bit rate mode : Constant
Bit rate : 640 Kbps
Channel(s) : 6 channels
Sampling rate : 48.0 KHz
Compression mode : Lossy
Stream size : 263 MiB (25%)
Alignment : Split accross interleaves
Interleave, duration : 42 ms (1.00 video frame)
Interleave, preload duration : 500 ms

Trackers

http://tracker.istole.it:80/
http://tracker.tntvillage.scambioetico.org:2710/scrape
http://open.demonii.com:1337/scrape
http://tracker.coppersurfer.tk:6969/scrape
http://tracker.openbittorrent.com/scrape
http://tracker.publicbt.com:80/